Восьмидесятые

Здравствуйте, гость ( Вход | Регистрация )

Онлайн-радио 80's:
Radio Stad Den Haag KYOI

Страницы: 13 V 123>»  

Концерты 80-х годов, Полноценные концертные записи восьмидесятых

 Romantic Warrior
Сообщение #1


Eternal Dreamer
Иконка группы

Администратор
Сообщений: 3332
Регистрация: 25.1.2007
Из: Ленинград
Пользователь №: 1
Благодарностей: 746




Здесь выкладываем видео полномасштабных концертов, записанное в восьмидесятые годы.

Начну с одной из музыкальных легенд тех лет - группы "Europe", и их концертной записи 1987 года. Это сумасшедший драйв и потрясающая музыка! punk.gif Поклонникам группы смотреть в обязательном порядке! good.gif


Europe - LIVE 1987

01. Final Countdown
02. Danger On The Track
03. Carrie
04. (Instrumental)
05. On The Loose
06. Dreamer (Acapella)
07. Open Your Heart
08. Rock The Night
09. Cherokee
10. On Broken Wings
11. Dance The Night Away
12. Final Countdown (Ending)

Продолжительность - 55 минут.
548.92 MB
~ Просмотр скрытого текста доступен зарегистрированным пользователям ~



Концерты 80-х годов

Все в этой книге может оказаться ошибкой... Ричард Бах, "Иллюзии"
Перейти в начало страницы
 
 yanna
Сообщение #2


Дежурная по рубрике
*********

СуперМодератор
Сообщений: 3774
Регистрация: 15.3.2009
Из: Екатеринбург
Пользователь №: 2879
Благодарностей: 4726




Товарищи,залейте,если есть возможность или выложите ссылочку на концертный DVD Криса де Бурга " Live from Dublin"

В нашем мире много психов!... Каждый пятый в мире псих!!!... Говори со мной спокойно!... Может я одна из них...
Перейти в начало страницы
 
 DKaramazoff
Сообщение #3


не злой.пьющий.весёлый.
****

Форумчанин
Сообщений: 269
Регистрация: 23.10.2008
Из: ХМАО Kogalym-city
Пользователь №: 1548
Благодарностей: 161




1мая сего года по каналу "Культура" позним вечером довелось посмотреть живой концерт АВВА в Лондоне(1982г вроде). К сожалению к началу трансляции опоздал, а состояние не позволило предпринять какие либо движения в плане записи.Может кому то повезло больше чем мне?

Сообщение отредактировал DKaramazoff - 29.6.2009, 18:39

все люди братья!но есть и сёстры....
Перейти в начало страницы
 
 djmager
Сообщение #4


Новичок
*

Новичок
Сообщений: 4
Регистрация: 4.10.2008
Из: Казахстан Актау
Пользователь №: 1428
Благодарностей: 1




Всем привет у когонибуть есть bravo super show 1997 год  супер концерт  был раньше на видео касети потерял , или может кто знает где можно скачать    

Перейти в начало страницы
 
 Nataliya
Сообщение #5


Райская Киса, очень добрая когда не злая.
**********

Модератор
Сообщений: 7547
Регистрация: 20.7.2008
Из: Норвегия
Пользователь №: 994
Благодарностей: 18364




Peters Popshow 1985 [2 DVDS]












VIdeo Size: 720 x 576 (AR 4:3)

Код
Video
ID                               : 224 (0xE0)
Format                           : MPEG Video
Format version                   : Version 2
Format profile                   : Main@Main
Format settings, BVOP            : Yes
Format settings, Matrix          : Default
Duration                         : 28mn 26s
Bit rate mode                    : Variable
Bit rate                         : 4 577 Kbps
Nominal bit rate                 : 7 500 Kbps
Width                            : 720 pixels
Height                           : 576 pixels
Display aspect ratio             : 4:3
Frame rate                       : 25.000 fps
Standard                         : PAL
Resolution                       : 8 bits
Colorimetry                      : 4:2:0
Bits/(Pixel*Frame)               : 0.441
Stream size                      : 931 MiB (91%)
Writing library                  : (c) 1998-2005 Womble Multimedia, Inc. / MPEG Video Wizard (09/2005) / Jan 27 2006

Audio
ID                               : 192 (0xC0)
Format                           : MPEG Audio
Format version                   : Version 1
Format profile                   : Layer 2

Bit rate mode                    : Constant
Bit rate                         : 256 Kbps
Channel(s)                       : 2 channels
Sampling rate                    : 48.0 KHz
Video delay                      : -80ms
Stream size                      : 52.1 MiB (5%)




# 1. Intro
# 2. Opus - Life Is Life
# 3. Opus - Rock On The Rocks
# 4. Katrina And The Waves - Walking On Sunshine
# 5. Katrina And The Waves - Do You Want Crying
# 6. Modern Talking - You're My Heart, You're My Soul
# 7. Modern Talking - Cheri Cheri Lady
# 8. Modern Talking - Heaven Will Know
# 9. Peter Maffay - Sonne In Der Nacht
# 10.Peter Maffay - Moves Like A Dancer
# 11.Peter Maffay - Fur Immer
# 12.Kate Bush - Runnung Up That Hill
# 13.Kate Bush - The Big Sky
# 14.Saga - What Do I Know
# 15.Saga - Take A Chance
# 16.Rick Springfield - Celebrate Youth
# 17.Rick Springfield - Dance This World Away
# 18.Frankie Goes To Hollywood - Relax
# 19.Frankie Goes To Hollywood - Two Tribes
# 20.Frankie Goes To Hollywood - Welcome To The Pleasuredom
# 21.Nick Kershaw - Wide Boy
# 22.Nick Kershaw - When A Heart Beats
# 23.Scorpions - I'm Still Loving You
# 24.Scorpions - Rock You Like A Hurricane
# 25.Whitney Houston - Saving All My Love
# 26.Whitney Houston - How Will I Know
# 27.Depeche Mode - Shake The Disease
# 28.Depeche Mode - It's Called A Heart
# 29.Mike Oldfield - Poison Arrows
# 30.Mike Oldfield - Pictures In The Dark
# 31.Reo Speedwagon - Time For Me To Fly
# 32.Reo Speedwagon - Wherever You're Goin
# 33.Sandra - Maria Magdalena
# 34.Sandra - In The Heat Of The Night
# 35.Klaus Lage - Faust Auf Faust
# 36.Klaus Lage - Stille Wasser
# 37.Corey Hart - Boy In The Box
# 37.Corey Hart - Never Surrender
# 38.Chris Rea - Stainsby Girl
# 39.Chris Rea - Josephine
# 40.Nena - Jung Wie Du
# 41.Nena - Du Kennst Die Liebe Nicht
# 42.John Miles - Music was My First Love
# 43.John Miles - Blinded
# 44.Matt Bianco - Yeh Yeh
# 45.Matt Bianco - More Than I Can Bear
# 46.Toto Cutugno - Mi Piacerebbe
# 47.Alison Moyet - That Ole Devil Called Love
# 48.Two Of Us - Blue Night Shadow
# 49.Two Of Us - Two Of Us
# 50.Stefan Waggershausen - Touche d'Amour
# 51.Murray Head - One Night In Bangkok
# 52.Murray Head - Pity The Child
# 53.Talk Talk - Life's What You Make It
# 54.Double - The Captain Of her Heart
# 55.Bad Boys Blue - You're Woman
# 56.Bad Boys Blue - Pretty Young Girl
# 57.Propaganda - P-Machinery
# 58.The Cool Notes - Spend The Night
# 59.C.C.Catch - I Can Loose My Heart Tonihgt
# 60.Raggio Di Luna - Comanchero
# 61.Whitney Houston - All At Once

DVD 1
~ Просмотр скрытого текста доступен зарегистрированным пользователям ~

~ Просмотр скрытого текста доступен зарегистрированным пользователям ~

~ Просмотр скрытого текста доступен зарегистрированным пользователям ~

~ Просмотр скрытого текста доступен зарегистрированным пользователям ~

~ Просмотр скрытого текста доступен зарегистрированным пользователям ~

~ Просмотр скрытого текста доступен зарегистрированным пользователям ~

~ Просмотр скрытого текста доступен зарегистрированным пользователям ~

~ Просмотр скрытого текста доступен зарегистрированным пользователям ~

~ Просмотр скрытого текста доступен зарегистрированным пользователям ~


Size: 4,20 GB ( 9 parts X 500 mv RAR 3% Recovery)

DVD 2
~ Просмотр скрытого текста доступен зарегистрированным пользователям ~

~ Просмотр скрытого текста доступен зарегистрированным пользователям ~

~ Просмотр скрытого текста доступен зарегистрированным пользователям ~

~ Просмотр скрытого текста доступен зарегистрированным пользователям ~

~ Просмотр скрытого текста доступен зарегистрированным пользователям ~

~ Просмотр скрытого текста доступен зарегистрированным пользователям ~

~ Просмотр скрытого текста доступен зарегистрированным пользователям ~

~ Просмотр скрытого текста доступен зарегистрированным пользователям ~

~ Просмотр скрытого текста доступен зарегистрированным пользователям ~

~ Просмотр скрытого текста доступен зарегистрированным пользователям ~


Size: 4,20 GB ( 9 parts 500 mb X 1 part 50 mb RAR 3% Recovery)

Сообщение отредактировал Nataliya - 2.6.2010, 13:56
Перейти в начало страницы
 
 SEGA
Сообщение #6


Новичок
*

Новичок
Сообщений: 14
Регистрация: 12.11.2008
Из: екатеринбург
Пользователь №: 1694
Благодарностей: 3




В мае 1991 года "Bad Boys Blue" впервые выступили в СССР. Группа принимала участие в грандиозном благо-творительном фестивале "Дети Чернобыля - наши дети". Организаторами концертов, прошедших с 31 мая по 2 июня в спорткомплексе "Олимпийский", были Питер Мюллер (отец небезызвестной певицы C.C.Catch) и гамбургский пред-приниматель Герхард Клёппер. Кроме "Bad Boys Blue", на фестивале выступили Dieter Bohlen, C.C.Catch, Den Harrow и многие другие исполнители танцевальной музыки
МОЖЕТ У КОГО НИБУДЬ ЕСТЬ ВИДЕОВЕРСЯ????

Сообщение отредактировал SEGA - 23.12.2009, 15:18
Перейти в начало страницы
 
 meloman97
Сообщение #7


Новичок
*

Новичок
Сообщений: 12
Регистрация: 18.10.2008
Пользователь №: 1523
Благодарностей: 1




Привет Всем.Поздравляю всех с наступившем НОВЫМ ГОДОМ выложите пожалуйста у кого есть

КОНЦЕРТ- BLUE SYSTEM; SOPOT FESTIVAL-89. 5 песен.Буду очень благодарен worthy.gif
Перейти в начало страницы
 
 Jack1972
Сообщение #8


Новичок
*

Новичок
Сообщений: 4
Регистрация: 3.10.2007
Пользователь №: 107
Благодарностей: 1




Ахтунг! Сцылки на Петерс Попшоу 86 скончались!!! Обновите, пожалуйста...
Перейти в начало страницы
 
 ALEXANDROID
Сообщение #9


Проходил мимо


Прохожий
Сообщений: 1
Регистрация: 17.1.2010
Пользователь №: 6124
Благодарностей: 1




Петерс Попшоу 86 на торенте. meloman.gif 1часть
~ Просмотр скрытого текста доступен зарегистрированным пользователям ~
2 часть
~ Просмотр скрытого текста доступен зарегистрированным пользователям ~
Перейти в начало страницы
 
 Nataliya
Сообщение #10


Райская Киса, очень добрая когда не злая.
**********

Модератор
Сообщений: 7547
Регистрация: 20.7.2008
Из: Норвегия
Пользователь №: 994
Благодарностей: 18364




Festivalbar 1985



1. Loredana Berte - Aqua / Banda Clandestina / Ragazzo Mio / Iris / Non Sono Una Signora / Sei Bellissima
2. Reds - In Your Eyes
3. Simply Red - Money's Too Tight
4. Claudio Simoneti - Phanomena / Sky Walker
5. Angelo Baiguera - Non Me Cercare
6. Delia Gualtiero - Di Quale Amore Di Quanto Amore
7. Kay Francis - Shadows In The Night
8. Cube - Performance
9. Celeste - Going Crazy
10. Bruno Lauzi - Piccola Donna
11. Novecento - Why Me
12. The Twins - Deep Within In My Heart
13. Raf - I Don't Wanna Lose You
14. Tipinifini - Fever
15. Taffy - Midnight Radio
16. Sandy Marton - Camel By Camel / Exotic & Erotic
17. Alba - Only Music Survive
18. Albert One - Heart On Fire
19. Baltimora - Tarzan Boy
20. Moti Special - Cold Days, Cold Nights
21. Fake - Brick
22. Ricardo Fogli - Dio Come Vorrei
23. Patty Pravo - Menu
24. Gruppo Italiano - Sole D'Agosto
25. Opus - Life Is Life
26. Time Bandits - Angels Road
27. Enrico Ruggeri - Poco Piu Di Niente



Audio: Dolby AC3 48000Hz 6ch 256kbps [AC-3]
Video: MPEG2 Video 704x576 (4:3) 25.00fps 9586kbps [Video]


General
Complete name : E:\VIDEO_TS\VTS_01_1.VOB
Format : MPEG-PS
File size : 1 024 MiB
Duration : 30mn 42s
Overall bit rate : 4 663 Kbps

Video
ID : 224 (0xE0)
Format : MPEG Video
Format version : Version 2
Format profile : Main@Main
Format settings, BVOP : Yes
Format settings, Matrix : Default
Format_Settings_GOP : M=3, N=12
Duration : 30mn 42s
Bit rate mode : Variable
Bit rate : 4 221 Kbps
Nominal bit rate : 9 586 Kbps
Width : 704 pixels
Height : 576 pixels
Display aspect ratio : 4:3
Frame rate : 25.000 fps
Standard : PAL
Resolution : 8 bits
Colorimetry : 4:2:0
Scan type : Interlaced
Scan order : Top Field First
Bits/(Pixel*Frame) : 0.416
Stream size : 927 MiB (91%)

Audio
ID : 128 (0x80)
Format : AC-3
Format/Info : Audio Coding 3
Format_Settings_ModeExtension : CM (complete main)
Duration : 30mn 41s
Bit rate mode : Constant
Bit rate : 256 Kbps
Channel(s) : 2 channels
Channel positions : Front: L R
Sampling rate : 48.0 KHz
Video delay : -80ms
Stream size : 56.2 MiB (5%)


Size: 4. 20 GB RAR ( 10 parts - 9 parts 500 mb + 1 part 100 mb)


~ Просмотр скрытого текста доступен зарегистрированным пользователям ~

~ Просмотр скрытого текста доступен зарегистрированным пользователям ~

~ Просмотр скрытого текста доступен зарегистрированным пользователям ~

~ Просмотр скрытого текста доступен зарегистрированным пользователям ~

~ Просмотр скрытого текста доступен зарегистрированным пользователям ~

~ Просмотр скрытого текста доступен зарегистрированным пользователям ~

~ Просмотр скрытого текста доступен зарегистрированным пользователям ~

~ Просмотр скрытого текста доступен зарегистрированным пользователям ~

~ Просмотр скрытого текста доступен зарегистрированным пользователям ~

~ Просмотр скрытого текста доступен зарегистрированным пользователям ~



~ Просмотр скрытого текста доступен зарегистрированным пользователям ~

~ Просмотр скрытого текста доступен зарегистрированным пользователям ~

~ Просмотр скрытого текста доступен зарегистрированным пользователям ~

~ Просмотр скрытого текста доступен зарегистрированным пользователям ~

~ Просмотр скрытого текста доступен зарегистрированным пользователям ~

~ Просмотр скрытого текста доступен зарегистрированным пользователям ~

~ Просмотр скрытого текста доступен зарегистрированным пользователям ~

~ Просмотр скрытого текста доступен зарегистрированным пользователям ~

~ Просмотр скрытого текста доступен зарегистрированным пользователям ~

~ Просмотр скрытого текста доступен зарегистрированным пользователям ~


Сообщение отредактировал Nataliya - 26.8.2010, 8:58
Перейти в начало страницы
 
 Nataliya
Сообщение #11


Райская Киса, очень добрая когда не злая.
**********

Модератор
Сообщений: 7547
Регистрация: 20.7.2008
Из: Норвегия
Пользователь №: 994
Благодарностей: 18364




Festivalbar 1987




Время: 1:37:58;
Видео: 720x576 - 4:3;
Звук: MPEG-2.0, 224 Kbps;
Размер: 4.1 Гб; 9 Parts RAR



FestivalBar 1987 - Vol.1

1 Europe-The Final Countdown
2 Celeste-Hey Boy
3 Style Council-Wanted
4 Matia Bazar-Noi
5 Off-Step By Step
6 Depeche Mode-Never Let Me Down Again
7 Depeche Mode-Strangelove
8 Richenel-Dance Around The World
9 Mandy Smith-I Just Can't Wait
10 Little Steven-Bitter Fruit
11 Aida-Scossa
12 Alberto Fortis-Qui La Luna
13 Den Harrow-Tell Me Why
14 Johnny Hatez Jazz-Medley (Shattered Dreams-I Don't Want To Be A Hero)
15 Via Verdi-You And Me
16 Sabrina-Boys
17 Curiosity Killed The Cat-Ordinary Day
18 Zucchero-Con Le Mani
19 Zucchero-Pippo
20 Zucchero-Solo Una Sana Consapevoled

~ Просмотр скрытого текста доступен зарегистрированным пользователям ~

~ Просмотр скрытого текста доступен зарегистрированным пользователям ~

~ Просмотр скрытого текста доступен зарегистрированным пользователям ~

~ Просмотр скрытого текста доступен зарегистрированным пользователям ~

~ Просмотр скрытого текста доступен зарегистрированным пользователям ~

~ Просмотр скрытого текста доступен зарегистрированным пользователям ~

~ Просмотр скрытого текста доступен зарегистрированным пользователям ~

~ Просмотр скрытого текста доступен зарегистрированным пользователям ~

~ Просмотр скрытого текста доступен зарегистрированным пользователям ~



~ Просмотр скрытого текста доступен зарегистрированным пользователям ~

~ Просмотр скрытого текста доступен зарегистрированным пользователям ~

~ Просмотр скрытого текста доступен зарегистрированным пользователям ~

~ Просмотр скрытого текста доступен зарегистрированным пользователям ~

~ Просмотр скрытого текста доступен зарегистрированным пользователям ~

~ Просмотр скрытого текста доступен зарегистрированным пользователям ~

~ Просмотр скрытого текста доступен зарегистрированным пользователям ~

~ Просмотр скрытого текста доступен зарегистрированным пользователям ~

~ Просмотр скрытого текста доступен зарегистрированным пользователям ~
Перейти в начало страницы
 
 G4EVER
Сообщение #12


Местный
****

Форумчанин
Сообщений: 210
Регистрация: 25.8.2010
Из: Киев
Пользователь №: 8336
Благодарностей: 261




Подскажите:- сборники Санремо, сюда выставлять?

Сообщение отредактировал G4EVER - 24.9.2010, 16:14
Перейти в начало страницы
 
 G4EVER
Сообщение #13


Местный
****

Форумчанин
Сообщений: 210
Регистрация: 25.8.2010
Из: Киев
Пользователь №: 8336
Благодарностей: 261




cool2.gif Всем спасибо!! у кого есть Тигра(Петерс поп шоу)1988 выдайте в эфир angel.gif

Сообщение отредактировал G4EVER - 24.9.2010, 16:05
Перейти в начало страницы
 
 G4EVER
Сообщение #14


Местный
****

Форумчанин
Сообщений: 210
Регистрация: 25.8.2010
Из: Киев
Пользователь №: 8336
Благодарностей: 261




Цитата(edik @ 16.9.2009, 14:04) *
Еще ...чем нибудь подобным порадуй worthy.gif

Постер и пятаки на- Deutsche HitParade (1986-1988) vol.1/ ZDF (Live) DVD5
Deutsche HitParade (1986-1988) vol.2/ ZDF (Live) DVD5

Перейти в начало страницы
 
 Nataliya
Сообщение #15


Райская Киса, очень добрая когда не злая.
**********

Модератор
Сообщений: 7547
Регистрация: 20.7.2008
Из: Норвегия
Пользователь №: 994
Благодарностей: 18364




Где бы взять настоящее Санремо, то, что показывали в те года Италии, а не по нашему ТВ... У меня есть стойкое подозрение, что в те показы попало далеко не все . ...Ну а пока вот это




Eurovision Song Contest - 1982 / Конкурс Евровидения - 1982


Tracklist:
1 Doce - Bem-bom (Португалия)
2 Svetlana - Cours apres le temps (Люксембург)
3 Jahn Teigen and Anita Skorgan - Adieu (Норвегия)
4 Bardo - One step further (Великобритания)
5 Neco - Hani (Турция)
6 Kojo - Nuku pommiin (Финляндия)
7 Arlette Zola - Amour on t’aime (Швейцария)
8 Анна Висси - Mono i agapi (Кипр)
9 Chips - Dag efter dag (Швеция)
10 Mess Sonntag (Австрия)
11 Stella - Si tu aimes ma musique (Бельгия)
12 Lucia - El (Испания)
13 Brixx - Video-video (Дания)
14 Aska - Halo halo (Югославия)
15 Avi Toledano - Hora (Израиль)
16 Bill van Dijk - Jij en ik (Нидерланды)
17 The Duskeys - Here today, gone tomorrow (Ирландия)
18 Николь Ein bisschen Frieden (ФРГ)

Video: DivX 5 720x576 25.00fps [Stream 00]
Audio: MPEG Audio Layer 3 24000Hz stereo 56kbps [Stream 01]

General
Complete name : D:\1982-Festival.De.Eurovision\Eurovision Song Contest 1982 (2) (TVE).avi
Format : AVI
Format/Info : Audio Video Interleave
File size : 572 MiB
Duration : 54mn 29s
Overall bit rate : 1 467 Kbps
Writing library : VirtualDub build 18160/release

Video
ID : 0
Format : MPEG-4 Visual
Format settings, BVOP : Yes
Format settings, QPel : No
Format settings, GMC : No warppoints
Format settings, Matrix : Default (H.263)
Muxing mode : Packed bitstream
Codec ID : DX50
Codec ID/Hint : DivX 5
Duration : 54mn 29s
Bit rate : 1 401 Kbps
Width : 720 pixels
Height : 576 pixels
Display aspect ratio : 5:4
Frame rate : 25.000 fps
Standard : PAL
Resolution : 8 bits
Colorimetry : 4:2:0
Scan type : Progressive
Bits/(Pixel*Frame) : 0.135
Stream size : 546 MiB (96%)
Writing library : DivX 5.2.1 (DrDivX 106) (UTC 2004-09-08)

Audio
ID : 1
Format : MPEG Audio
Format version : Version 2
Format profile : Layer 3
Mode : Joint stereo
Format_Settings_ModeExtension : Intensity Stereo + MS Stereo
Codec ID : 55
Codec ID/Hint : MP3
Duration : 54mn 29s
Bit rate mode : Constant
Bit rate : 56.0 Kbps
Channel(s) : 2 channels
Sampling rate : 24.0 KHz
Stream size : 21.8 MiB (4%)
Alignment : Split accross interleaves
Interleave, duration : 40 ms (1.00 video frame)

Size: 1. 280 GB 3 Parts RAR,

~ Просмотр скрытого текста доступен зарегистрированным пользователям ~

~ Просмотр скрытого текста доступен зарегистрированным пользователям ~

~ Просмотр скрытого текста доступен зарегистрированным пользователям ~


~ Просмотр скрытого текста доступен зарегистрированным пользователям ~

~ Просмотр скрытого текста доступен зарегистрированным пользователям ~

~ Просмотр скрытого текста доступен зарегистрированным пользователям ~


Сообщение отредактировал Nataliya - 11.10.2010, 13:52
Перейти в начало страницы
 
 Nataliya
Сообщение #16


Райская Киса, очень добрая когда не злая.
**********

Модератор
Сообщений: 7547
Регистрация: 20.7.2008
Из: Норвегия
Пользователь №: 994
Благодарностей: 18364




Eurovision Song Contest - 1984 / Конкурс Евровидения - 1984



Tracklist:

1. Herrey’s - Diggi-loo diggy-ley (Швеция)
2. Sophie Carle - 100 % d’amour (Люксембург)
3. Annick Thoumazeau - Autant d’amoureux que d'etoiles (Франция)
4. Bravo - Lady, lady (Испания)
5. Dollie de Luxe - Lenge leve livet (Норвегия)
6. Belle and the Devotions - Love games (Великобритания)
7. Andy Paul - Anna Mari-Elena (Кипр)
8. Jacques Zegers - Avanti la vie (Бельгия)
9. Linda Martin - Terminal '3' (Ирландия)
10. Hot Eyes - Det' lige det (Дания)
11. Maribelle - Ik hou van jou (Нидерланды)
12. Vlado and Isolda - Ciao amore (Югославия)
13. Anita - Einfach weg (Австрия)
14. Mary Roos - Aufrecht geh’n (ФРГ)
15. Bes Yil Once, On Yil Sonra - Halay (Турция)
16. Kirka - Hengaillaan (Финляндия)
17. Rainy Day - Welche Farbe hat der Sonnenschein (Швейцария)
18. Alice and Battiato - I treni di Tozeur (Италия)
19. Maria Guinot - Silencio e tanta gente (Португалия)


Video: Xvid 720x544 25.00fps [Stream 00]
Audio: Dolby AC3 48000Hz stereo 256kbps [Stream 01]


General
Complete name : D:\Eurovision 1984 .avi
Format : AVI
Format/Info : Audio Video Interleave
File size : 1.17 GiB
Duration : 54mn 42s
Overall bit rate : 3 069 Kbps
Writing application : VirtualDubMod 1.5.4.1 (build 2178/release)
Writing library : VirtualDubMod build 2178/release

Video
ID : 0
Format : MPEG-4 Visual
Format profile : Advanced Simple@L5
Format settings, BVOP : Yes
Format settings, QPel : No
Format settings, GMC : No warppoints
Format settings, Matrix : Custom
Codec ID : XVID
Codec ID/Hint : XviD
Duration : 54mn 42s
Bit rate : 2 807 Kbps
Width : 720 pixels
Height : 544 pixels
Display aspect ratio : 4:3
Frame rate : 25.000 fps
Resolution : 8 bits
Colorimetry : 4:2:0
Scan type : Progressive
Bits/(Pixel*Frame) : 0.287
Stream size : 1.07 GiB (91%)
Writing library : XviD 1.2.0SMP (UTC 2006-01-08)

Audio
ID : 1
Format : AC-3
Format/Info : Audio Coding 3
Format_Settings_ModeExtension : CM (complete main)
Codec ID : 2000
Duration : 54mn 42s
Bit rate mode : Constant
Bit rate : 256 Kbps
Channel(s) : 2 channels
Channel positions : Front: L R
Sampling rate : 48.0 KHz
Stream size : 100 MiB (8%)
Alignment : Aligned on interleaves
Interleave, duration : 96 ms (2.40 video frames)

Interleave, preload duration : 96 ms
Size: 1. 20 Gb RAR (3 Parts)


~ Просмотр скрытого текста доступен зарегистрированным пользователям ~

~ Просмотр скрытого текста доступен зарегистрированным пользователям ~

~ Просмотр скрытого текста доступен зарегистрированным пользователям ~


~ Просмотр скрытого текста доступен зарегистрированным пользователям ~

~ Просмотр скрытого текста доступен зарегистрированным пользователям ~

~ Просмотр скрытого текста доступен зарегистрированным пользователям ~


Сообщение отредактировал Nataliya - 11.10.2010, 17:28
Перейти в начало страницы
 
 Nataliya
Сообщение #17


Райская Киса, очень добрая когда не злая.
**********

Модератор
Сообщений: 7547
Регистрация: 20.7.2008
Из: Норвегия
Пользователь №: 994
Благодарностей: 18364




Eurovision Song Contest - 1983 / Конкурс Евровидения - 1983



Trackist:

1. Corinne Hermes - Si la vie est cadeau (Люксембург)
2. Ofra Haza - Hi (Израиль)
3. Carola Haggkvist - Framling (Швеция)
4. Danijel - Dzuli (Югославия)
5. Hoffmann und Hoffmann - Rucksicht (ФРГ)
6. Sweet Dreams - I’m never giving up (Великобритания)
7. Bernadette - Sing me a song (Нидерланды)
8. Guy Bonnet - Vivre (Франция)
9. Westend - Hurricane (Австрия)
10. Jahn Teigen - Do re mi (Норвегия)
11. Riccardo Fogli - Per Lucia (Италия)
12. Ami Aspelund - Fantasiaa (Финляндия)
13. Armando Gama - Esta balada que te dou (Португалия)
14. Christie - Mou les (Греция)
15. Mariella Farre - Io cosi non ci sto (Швейцария)
16. Stavros and Constantina - I agapi akoma zi (Кипр)
17. Gry Johansen - Kloden drejer (Дания)
18. Pas de Deux - Rendez-vous (Бельгия)
19. Cetin Alp and the Short Wave - Opera (Турция)
20. Remedios Amaya - Quien maneja mi barca (Испания)

Video: Xvid 480x368 25.00fps [Stream 00]
Audio: MPEG Audio Layer 3 48000Hz stereo 138kbps [Stream 01]

General
Complete name : D:\1983.Festival.de.Eurovision.VHSRip.avi
Format : AVI
Format/Info : Audio Video Interleave
File size : 699 MiB
Duration : 2h 56mn
Overall bit rate : 554 Kbps
Writing application : VirtualDubMod 1.5.4.1 (build 2178/release)
Writing library : VirtualDubMod build 2178/release

Video
ID : 0
Format : MPEG-4 Visual
Format profile : Advanced Simple@L5
Format settings, BVOP : Yes
Format settings, QPel : No
Format settings, GMC : No warppoints
Format settings, Matrix : Custom
Codec ID : XVID
Codec ID/Hint : XviD
Duration : 2h 56mn
Bit rate : 402 Kbps
Width : 480 pixels
Height : 368 pixels
Display aspect ratio : 4:3
Frame rate : 25.000 fps
Resolution : 8 bits
Colorimetry : 4:2:0
Scan type : Progressive
Bits/(Pixel*Frame) : 0.091
Stream size : 508 MiB (73%)
Writing library : XviD 1.0.2 (UTC 2004-08-29)

Audio
ID : 1
Format : MPEG Audio
Format version : Version 1
Format profile : Layer 3
Mode : Joint stereo
Format_Settings_ModeExtension : MS Stereo
Codec ID : 55
Codec ID/Hint : MP3
Duration : 2h 56mn
Bit rate mode : Variable
Bit rate : 139 Kbps
Nominal bit rate : 128 Kbps
Channel(s) : 2 channels
Sampling rate : 48.0 KHz
Stream size : 175 MiB (25%)
Alignment : Aligned on interleaves
Interleave, duration : 24 ms (0.60 video frame)
Interleave, preload duration : 132 ms
Writing library : LAME3.90.
Encoding settings : -m j -V 4 -q 2 -lowpass 17.6 --abr 128

Size: 699 MB RAR 2 parts

~ Просмотр скрытого текста доступен зарегистрированным пользователям ~

~ Просмотр скрытого текста доступен зарегистрированным пользователям ~


~ Просмотр скрытого текста доступен зарегистрированным пользователям ~

~ Просмотр скрытого текста доступен зарегистрированным пользователям ~
Перейти в начало страницы
 
 Nataliya
Сообщение #18


Райская Киса, очень добрая когда не злая.
**********

Модератор
Сообщений: 7547
Регистрация: 20.7.2008
Из: Норвегия
Пользователь №: 994
Благодарностей: 18364




Eurovision Song Contest - 1985 / Конкурс Евровидения - 1985



Tracklist:

1. Maria Christian - Wait until the weekend comes (Ирландия)
2. Sonja Lumme - Elakoon elama (Финляндия)
3. Lia Vishy - To katalava arga (Кипр)
4. Hot Eyes - Sku' du spor fra no’n (Дания)
5. Paloma San Basilio - La fiesta termino (Испания)
6. Roger Bens - Femme dans ses reves aussi (Франция)
7. MFO - Di dai di dai dai (a’sik oldum) (Турция)
8. Linda Lepomme - Laat me nu gaan (Бельгия)
9. Adelaide - Penso em ti, eu sei (Португалия)
10. Wind - Fur alle (ФРГ)
11. Изхар Коэн - Ole ole (Израиль)
12. Al Bano and Romina Power - Magic, oh magic (Италия)
13. Bobbysocks - La det swinge (Норвегия)
14. Vikki - Love is... (Великобритания)
15. Mariella Farre and Pino Gasparini - Piano piano (Швейцария)
16. Kikki Danielsson - Bra vibrationer (Швеция)
17. Gary Lux - Kinder dieser Welt (Австрия)
18. Margo, Franck Olivier, Diane Solomon, Ireen Sheer, Malcolm Roberts and Chris Roberts - Children, Kinder, enfants (Люксембург)
19. Takis Biniaris - Miazoume (Греция)



Video: Xvid 640x480 25.00fps [Stream 00]
Audio: Dolby AC3 48000Hz stereo 256kbps [Stream 01]

General
Complete name : D:\1985 Eurovision Song Contest (Slo actuaciones).avi
Format : AVI
Format/Info : Audio Video Interleave
File size : 1.17 GiB
Duration : 55mn 48s
Overall bit rate : 3 007 Kbps
Writing application : VirtualDubMod 1.5.4.1 (build 2178/release)
Writing library : VirtualDubMod build 2178/release

Video
ID : 0
Format : MPEG-4 Visual
Format profile : Advanced Simple@L5
Format settings, BVOP : Yes
Format settings, QPel : No
Format settings, GMC : No warppoints
Format settings, Matrix : Custom
Codec ID : XVID
Codec ID/Hint : XviD
Duration : 55mn 48s
Bit rate : 2 744 Kbps
Width : 640 pixels
Height : 480 pixels
Display aspect ratio : 4:3
Frame rate : 25.000 fps
Resolution : 8 bits
Colorimetry : 4:2:0
Scan type : Progressive
Bits/(Pixel*Frame) : 0.357
Stream size : 1.07 GiB (91%)
Writing library : XviD 1.2.0SMP (UTC 2006-01-08)

Audio
ID : 1
Format : AC-3
Format/Info : Audio Coding 3
Format_Settings_ModeExtension : CM (complete main)
Codec ID : 2000
Duration : 55mn 48s
Bit rate mode : Constant
Bit rate : 256 Kbps
Channel(s) : 2 channels
Channel positions : Front: L R
Sampling rate : 48.0 KHz
Stream size : 102 MiB (9%)
Alignment : Aligned on interleaves
Interleave, duration : 96 ms (2.40 video frames)
Interleave, preload duration : 96 ms
[
Size: 1. 20 Gb ( 3 Parts RAR)

~ Просмотр скрытого текста доступен зарегистрированным пользователям ~

~ Просмотр скрытого текста доступен зарегистрированным пользователям ~

~ Просмотр скрытого текста доступен зарегистрированным пользователям ~


~ Просмотр скрытого текста доступен зарегистрированным пользователям ~

~ Просмотр скрытого текста доступен зарегистрированным пользователям ~

~ Просмотр скрытого текста доступен зарегистрированным пользователям ~


Сообщение отредактировал Nataliya - 14.10.2010, 7:40
Перейти в начало страницы
 
 Nataliya
Сообщение #19


Райская Киса, очень добрая когда не злая.
**********

Модератор
Сообщений: 7547
Регистрация: 20.7.2008
Из: Норвегия
Пользователь №: 994
Благодарностей: 18364




Eurovision Song Contest - 1986 / Конкурс Евровидения - 1986



Трэклист:
1. Sherisse Laurence - L’amour de ma vie (Люксембург)
2. Doris Dragovic - Zeljo moja (Югославия)
3. Cocktail Chic - Europeennes (Франция)
4. Ketil Stokkan - Romeo (Норвегия)
5. Ryder - Runner in the night (Великобритания)
6. Icy - Gledibankinn (Исландия)
7. Frizzle Sizzle - Alles heeft ritme (Нидерланды)
8. Klips ve Onlar - Halley (Турция)
9. Cadillac - Valentino (Испания)
10. Daniela Simons - Pas pour moi (Швейцария)
11. Moti Galadi and Sarai Tzuriel Yavoh yom (Израиль)
12. Luv Bug You can count on me (Ирландия)
13. Sandra Kim - J’aime la vie (Бельгия)
14. Ingrid Peters - Uber die Brucke geh’n (ФРГ)
15. Elpida - Tora zo (Кипр)
16. Timna Brauer - Die Zeit ist einsam (Австрия)
17. Lasse Holm and Monica Tornell - E' de' det har du kallar karlek (Швеция)
18. Lise Haavik and Trax - Du er fuld af logn (Дания)
19. Kari Kuivalainen - Paiva kahden ihmisen (Финляндия)
20. Dora - Nao sejas mau para mim (Португалия)

Video: Xvid 624x464 25.00fps [Stream 00]
Audio: Dolby AC3 48000Hz stereo 256kbps [Stream 01]

General
Complete name : D:\Eurovision.Song.Contest.1986.avi
Format : AVI
Format/Info : Audio Video Interleave
File size : 1.17 GiB
Duration : 58mn 27s
Overall bit rate : 2 875 Kbps
Writing application : VirtualDubMod 1.5.4.1 (build 2178/release)
Writing library : VirtualDubMod build 2178/release

Video
ID : 0
Format : MPEG-4 Visual
Format profile : Advanced Simple@L5
Format settings, BVOP : Yes
Format settings, QPel : No
Format settings, GMC : No warppoints
Format settings, Matrix : Custom
Codec ID : XVID
Codec ID/Hint : XviD
Duration : 58mn 27s
Bit rate : 2 612 Kbps
Width : 624 pixels
Height : 464 pixels
Display aspect ratio : 4:3
Frame rate : 25.000 fps
Resolution : 8 bits
Colorimetry : 4:2:0
Scan type : Progressive
Bits/(Pixel*Frame) : 0.361
Stream size : 1.07 GiB (91%)
Writing library : XviD 1.2.0SMP (UTC 2006-01-08)

Audio
ID : 1
Format : AC-3
Format/Info : Audio Coding 3
Format_Settings_ModeExtension : CM (complete main)
Codec ID : 2000
Duration : 58mn 27s
Bit rate mode : Constant
Bit rate : 256 Kbps
Channel(s) : 2 channels
Channel positions : Front: L R
Sampling rate : 48.0 KHz
Stream size : 107 MiB (9%)
Alignment : Aligned on interleaves
Interleave, duration : 96 ms (2.40 video frames)
Interleave, preload duration : 96 ms

Size: 1. 20 GB ( 3 Parts RAR)


~ Просмотр скрытого текста доступен зарегистрированным пользователям ~

~ Просмотр скрытого текста доступен зарегистрированным пользователям ~

~ Просмотр скрытого текста доступен зарегистрированным пользователям ~


~ Просмотр скрытого текста доступен зарегистрированным пользователям ~

~ Просмотр скрытого текста доступен зарегистрированным пользователям ~

~ Просмотр скрытого текста доступен зарегистрированным пользователям ~
Перейти в начало страницы
 
 Nataliya
Сообщение #20


Райская Киса, очень добрая когда не злая.
**********

Модератор
Сообщений: 7547
Регистрация: 20.7.2008
Из: Норвегия
Пользователь №: 994
Благодарностей: 18364




Eurovision Song Contest - 1987 / Конкурс Евровидения - 1987


Трэклист:
1 Kate Gulbrandsen - Mitt liv (Норвегия)
2 Datner and Kushnir - Shir habatlanim (Израиль)
3 Gary Lux - Nur noch Gefuhl (Австрия)
4 Halla Margaret - Haegt og hljott (Исландия)
5 Liliane Saint-Pierre - Soldiers of love (Бельгия)
6 Lotta Engberg - Boogaloo (Швеция)
7 Umberto Tozzi and Raf - Gente di mare (Италия)
8 Nevada - Neste barco a vela (Португалия)
9 Patricia Kraus - No estas solo (Испания)
10 Seyyal Tanner and Lokomotif - Sarkim sevgi ustune (Турция)
11 Bang - Stop! (Греция)
12 Marcha - Rechtop in de wind (Нидерланды)
13 Plastic Bertrand - Amour amour (Люксембург)
14 Rikki - Only the light (Великобритания)
15 Christine Minier - Les mots d’amour n’ont pas de dimanche (Франция)
16 Wind - Lass die Sonne in dein Herz (ФРГ)
17 Alexia - Aspro mavro (Кипр)
18 Vicky Rosti - Sata salamaa (Финляндия)
19 Anne-Catherine Herdorf and Bandjo - En lille melodi (Дания)
20 Джонни Логан - Hold me now (Ирландия)
21 Novi Fosili - Ja sam za ples (Югославия)
22 Carole Rich - Moitie moitie (Швейцария)



Video: Xvid 576x432 25.00fps [Stream 00]
Audio: Dolby AC3 48000Hz stereo 256kbps [Stream 01]

General
Complete name : D:\1987 - Brussel - Eurovision Song Contest.avi
Format : AVI
Format/Info : Audio Video Interleave
File size : 1.17 GiB
Duration : 1h 4mn
Overall bit rate : 2 592 Kbps
Writing application : VirtualDubMod 1.5.4.1 (build 2178/release)
Writing library : VirtualDubMod build 2178/release

Video
ID : 0
Format : MPEG-4 Visual
Format profile : Advanced Simple@L5
Format settings, BVOP : Yes
Format settings, QPel : No
Format settings, GMC : No warppoints
Format settings, Matrix : Custom
Codec ID : XVID
Codec ID/Hint : XviD
Duration : 1h 4mn
Bit rate : 2 329 Kbps
Width : 576 pixels
Height : 432 pixels
Display aspect ratio : 4:3
Frame rate : 25.000 fps
Resolution : 8 bits
Colorimetry : 4:2:0
Scan type : Progressive
Bits/(Pixel*Frame) : 0.374
Stream size : 1.05 GiB (90%)
Writing library : XviD 1.2.0SMP (UTC 2006-01-08)

Audio
ID : 1
Format : AC-3
Format/Info : Audio Coding 3
Format_Settings_ModeExtension : CM (complete main)
Codec ID : 2000
Duration : 1h 4mn
Bit rate mode : Constant
Bit rate : 256 Kbps
Channel(s) : 2 channels
Channel positions : Front: L R
Sampling rate : 48.0 KHz
Stream size : 119 MiB (10%)
Alignment : Aligned on interleaves
Interleave, duration : 96 ms (2.40 video frames)
Interleave, preload duration : 96 ms

Size: 1. 20 GB 3 parts RAR

~ Просмотр скрытого текста доступен зарегистрированным пользователям ~

~ Просмотр скрытого текста доступен зарегистрированным пользователям ~

~ Просмотр скрытого текста доступен зарегистрированным пользователям ~



~ Просмотр скрытого текста доступен зарегистрированным пользователям ~

~ Просмотр скрытого текста доступен зарегистрированным пользователям ~

~ Просмотр скрытого текста доступен зарегистрированным пользователям ~


Сообщение отредактировал Nataliya - 15.10.2010, 10:49
Перейти в начало страницы
 
Yandex Bot


Рекламный бот Яндекса

Группа: Рекламодатели
Из: Интернет



Страницы: 13 V 123>»

 


RSS Текстовая версия Сейчас: 21.1.2018, 17:19